Autor Tema: The Amazing Spider Man 2 (2014) 3D H-SBS 1080p (Ing-Lat)  (Leído 27 veces)

0 Usuarios y 1 Visitante están viendo este tema.

Desconectado campitos

  • Señor Chango
  • *
  • Mensajes: 532


Titulo original: The Amazing Spider-Man 2: Rise of Electro (The Amazing Spiderman 2)
Ano: 2014
Duracion: 142 min.
Pais:  Estados Unidos
Director: Marc Webb
Guion: Alex Kurtzman, Roberto Orci, James Vanderbilt, Jeff Pinkner
Musica: Hans Zimmer, Pharrell Williams, Johnny Marr, Michael Einziger, Dave Stewart
Fotografia: Daniel Mindel
Reparto: Andrew Garfield, Emma Stone, Jamie Foxx, Dane DeHaan, Felicity Jones, Paul Giamatti, Sally Field, Embeth Davidtz, Colm Feore, Campbell Scott, Denis Leary, Marton Csokas, Sarah Gadon, Chris Zylka, Martin Sheen, Chris Cooper, Mark Doherty, Stan Lee
Productora: Marvel Enterprises / Columbia Pictures / Sony Pictures
Genero: Fantastico. Accion. Aventuras | Superheroes. Comic. Marvel Comics. Secuela
Sinopsis: Peter Parker lleva una vida muy ocupada, compaginando su tiempo entre su papel como Spider-Man, acabando con los malos, y en el instituto con la persona a la que quiere, Gwen. Peter no ve el momento de graduarse. No ha olvidado la promesa que le hizo al padre de Gwen de protegerla, manteniendose lejos de ella, pero es una promesa que simplemente no puede cumplir. Las cosas cambiaran para Peter cuando aparece un nuevo villano, Electro, y un viejo amigo, Harry Osborn, regresa, al tiempo que descubre nuevas pistas sobre su pasado.
Código: [Seleccionar]
http://www.imdb.com/title/tt1872181/Trailer
https://www.youtube.com/watch?v=NVr1oVIsaps

Cita
General
Format : Matroska
Format version : Version 3 / Version 2
File size : 13.6 GiB
Duration : 2h 21mn
Overall bit rate : 13.7 Mbps
Encoded date : UTC 2014-08-03 19:43:32
Writing application : mkvmerge v5.7.0 (The Whirlwind) built on Jul 8 2012 20:08:51
Writing library : libebml v1.2.3 + libmatroska v1.3.0
Video
ID : 1
Format : AVC
Format/Info : Advanced Video Codec
Format profile : High@L4.1
MultiView_Count : 2
MultiView_Layout : Side by Side (left eye first)
Format settings, CABAC : Yes
Format settings, ReFrames : 4 frames
Muxing mode : Header stripping
Codec ID : V_MPEG4/ISO/AVC
Duration : 2h 21mn
Bit rate : 10.7 Mbps
Width : 1 920 pixels
Height : 1 080 pixels
Display aspect ratio : 16:9
Frame rate mode : Constant
Frame rate : 23.976 fps
Color space : YUV
Chroma subsampling : 4:2:0
Bit depth : 8 bits
Scan type : Progressive
Bits/(Pixel*Frame) : 0.214
Stream size : 10.5 GiB (78%)
Writing library : x264 core 142 r2389 956c8d8
Language : English
Default : Yes
Forced : No
Audio #1
ID : 2
Format : AC-3
Format/Info : Audio Coding 3
Mode extension : CM (complete main)
Format settings, Endianness : Big
Muxing mode : Header stripping
Codec ID : A_AC3
Duration : 2h 21mn
Bit rate mode : Constant
Bit rate : 640 Kbps
Channel(s) : 6 channels
Channel positions : Front: L C R, Side: L R, LFE
Sampling rate : 48.0 KHz
Bit depth : 16 bits
Compression mode : Lossy
Stream size : 648 MiB (5%)
Title : AC3 5.1
Language : Spanish
Default : Yes
Forced : No
Audio #2
ID : 3
Format : AC-3
Format/Info : Audio Coding 3
Mode extension : CM (complete main)
Format settings, Endianness : Big
Muxing mode : Header stripping
Codec ID : A_AC3
Duration : 2h 21mn
Bit rate mode : Constant
Bit rate : 640 Kbps
Channel(s) : 6 channels
Channel positions : Front: L C R, Side: L R, LFE
Sampling rate : 48.0 KHz
Bit depth : 16 bits
Compression mode : Lossy
Stream size : 648 MiB (5%)
Title : AC3 5.1
Language : English
Default : No
Forced : No
Audio #3
ID : 4
Format : DTS
Format/Info : Digital Theater Systems
Mode : 16
Format settings, Endianness : Big
Muxing mode : Header stripping
Codec ID : A_DTS
Duration : 2h 21mn
Bit rate mode : Constant
Bit rate : 1 509 Kbps
Channel(s) : 6 channels
Channel positions : Front: L C R, Side: L R, LFE
Sampling rate : 48.0 KHz
Bit depth : 16 bits
Compression mode : Lossy
Stream size : 1.49 GiB (11%)
Title : DTS 5.1
Language : English
Default : No
Forced : No
Text
ID : 5
Format : PGS
Muxing mode : zlib
Codec ID : S_HDMV/PGS
Codec ID/Info : The same subtitle format used on BDs/HD-DVDs
Language : Spanish
Default : No
Forced : No





Código: [Seleccionar]
https://filejoker.net/zvttl49itoxp/taspi3d5fc.part01.rar
https://filejoker.net/iy5dcufhk2rt/taspi3d5fc.part02.rar
https://filejoker.net/x6s0yenin63w/taspi3d5fc.part03.rar
https://filejoker.net/lk9e11mv166t/taspi3d5fc.part04.rar
https://filejoker.net/qvxqs24ay0cf/taspi3d5fc.part05.rar
https://filejoker.net/wey79xjlyka1/taspi3d5fc.part06.rar
https://filejoker.net/khwrcr3tv7oa/taspi3d5fc.part07.rar
https://filejoker.net/zf63xs519z34/taspi3d5fc.part08.rar
https://filejoker.net/yyi7zoy8w7s4/taspi3d5fc.part09.rar
https://filejoker.net/nn1xe3gor5lx/taspi3d5fc.part10.rar
https://filejoker.net/3hw7bbiwm0zn/taspi3d5fc.part11.rar
https://filejoker.net/ic8foniwkix8/taspi3d5fc.part12.rar
https://filejoker.net/9494n21gpytr/taspi3d5fc.part13.rar
https://filejoker.net/1yod8ivhuvjz/taspi3d5fc.part14.rar
https://filejoker.net/d5ifky6wktr6/taspi3d5fc.part15.rar