Autor Tema: Transformers Age of Extinction (2014) 3D H-SBS 1080p (Ing-Lat)  (Leído 51 veces)

0 Usuarios y 1 Visitante están viendo este tema.

Desconectado campitos



Titulo original: Transformers: Age of Extinction (Transformers 4)
Ano: 2014
Duracion: 165 min.
Pais:  Estados Unidos
Director: Michael Bay
Guion: Ehren Kruger
Musica: Steve Jablonsky
Fotografia: Amir Mokri
Reparto: Mark Wahlberg, Nicola Peltz, Jack Reynor, Stanley Tucci, Kelsey Grammer, Sophia Myles, Victoria Summer, T.J. Miller, Han Geng, Li Bingbing, Brenton Thwaites, Cleo King, Titus Welliver, Teresa Daley, Michael Wong
Productora: Paramount Pictures / Hasbro / China Movie Channel
Genero: Ciencia ficcion. Accion | Robots. Extraterrestres. Secuela. 3-D

Sinopsis: Han pasado 4 anos desde la tragedia de Chicago y la humanidad sigue reparando los destrozos, pero tanto los Autobots como los Decepticons han desaparecido de la faz de la Tierra. Ahora el Gobierno de los Estados Unidos esta utilizando la tecnologia rescatada en el asedio de Chicago para desarrollar sus propios Transformers. Al frente del proyecto esta Joshua Joyce (Stanley Tucci), un arrogante disenador que piensa que los Autobots son "basura tecnologica" y se cree capaz de fabricar unos robots infinitamente mas avanzados. Mientras tanto, Cade Yeager (Mark Wahlberg), un mecanico inventor, encuentra un Marmon semi-trailer. Al intentar repararlo, descubre que el camion no solo era un Transformer, sino tambien el mismisimo Optimus Prime, lider de los Autobots. Lo que Cade ignora son las consecuencias que pueden derivarse de este hallazgo.
Código: [Seleccionar]
http://www.imdb.com/title/tt2109248/Trailer
https://youtu.be/lcvXyyoMXzw

Cita
General
Format : Matroska
Format version : Version 4 / Version 2
File size : 13.4 GiB
Duration : 2h 45mn
Overall bit rate : 11.6 Mbps
Encoded date : UTC 2014-09-19 20:11:40
Writing application : mkvmerge v7.1.0 (Good Love) 64bit built on Jul 27 2014 13:06:55
Writing library : libebml v1.3.0 + libmatroska v1.4.1
Video
ID : 1
Format : AVC
Format/Info : Advanced Video Codec
Format profile : High@L4.1
Format settings, CABAC : Yes
Format settings, ReFrames : 4 frames
Codec ID : V_MPEG4/ISO/AVC
Duration : 2h 45mn
Bit rate : 8 835 Kbps
Width : 1 920 pixels
Height : 1 016 pixels
Display aspect ratio : 1.890
Frame rate mode : Constant
Frame rate : 23.976 fps
Color space : YUV
Chroma subsampling : 4:2:0
Bit depth : 8 bits
Scan type : Progressive
Bits/(Pixel*Frame) : 0.189
Stream size : 9.92 GiB (74%)
Writing library : x264 core 142 r2479 dd79a61
Language : English
Default : Yes
Forced : No
Audio #1
ID : 2
Format : AC-3
Format/Info : Audio Coding 3
Mode extension : CM (complete main)
Format settings, Endianness : Big
Codec ID : A_AC3
Duration : 2h 45mn
Bit rate mode : Constant
Bit rate : 640 Kbps
Channel(s) : 6 channels
Channel positions : Front: L C R, Side: L R, LFE
Sampling rate : 48.0 KHz
Bit depth : 16 bits
Compression mode : Lossy
Stream size : 756 MiB (6%)
Title : AC3 5.1 [BluRay]
Language : Spanish
Default : Yes
Forced : No
Audio #2
ID : 3
Format : AC-3
Format/Info : Audio Coding 3
Mode extension : CM (complete main)
Format settings, Endianness : Big
Codec ID : A_AC3
Duration : 2h 45mn
Bit rate mode : Constant
Bit rate : 640 Kbps
Channel(s) : 6 channels
Channel positions : Front: L C R, Side: L R, LFE
Sampling rate : 48.0 KHz
Bit depth : 16 bits
Compression mode : Lossy
Stream size : 756 MiB (6%)
Title : AC3 5.1
Language : English
Default : No
Forced : No
Audio #3
ID : 4
Format : DTS
Format/Info : Digital Theater Systems
Mode : 16
Format settings, Endianness : Big
Codec ID : A_DTS
Duration : 2h 45mn
Bit rate mode : Constant
Bit rate : 1 510 Kbps
Channel(s) : 6 channels
Channel positions : Front: L C R, Side: L R, LFE
Sampling rate : 48.0 KHz
Bit depth : 24 bits
Compression mode : Lossy
Stream size : 1.74 GiB (13%)
Title : DTS 5.1
Language : English
Default : No
Forced : No
Text #1
ID : 5
Format : UTF-8
Codec ID : S_TEXT/UTF8
Codec ID/Info : UTF-8 Plain Text
Title : Forz
Language : Spanish
Default : Yes
Forced : No
Text #2
ID : 6
Format : UTF-8
Codec ID : S_TEXT/UTF8
Codec ID/Info : UTF-8 Plain Text
Title : Complet
Language : Spanish
Default : No
Forced : No







Código: [Seleccionar]
https://filejoker.net/bdjgmpv4swd2/tanf3d544sc.part01.rar
https://filejoker.net/e5yyyqmrc2kh/tanf3d544sc.part02.rar
https://filejoker.net/3xlpmvmei4j1/tanf3d544sc.part03.rar
https://filejoker.net/slqxyha0ztfo/tanf3d544sc.part04.rar
https://filejoker.net/2wiqdgk1o1wc/tanf3d544sc.part05.rar
https://filejoker.net/l28d2ia1505p/tanf3d544sc.part06.rar
https://filejoker.net/p5a3ty9x1y52/tanf3d544sc.part07.rar
https://filejoker.net/avk87shldrb2/tanf3d544sc.part08.rar
https://filejoker.net/ry1v0f5hl3c0/tanf3d544sc.part09.rar
https://filejoker.net/4076kf60ymmf/tanf3d544sc.part10.rar
https://filejoker.net/fhgr5gqx2300/tanf3d544sc.part11.rar
https://filejoker.net/wr6towo5rrvz/tanf3d544sc.part12.rar
https://filejoker.net/vtum76goje6y/tanf3d544sc.part13.rar
https://filejoker.net/j7fl19kgdma7/tanf3d544sc.part14.rar
https://filejoker.net/mha1ow55670v/tanf3d544sc.part15.rar



Desconectado daniand

Re:Transformers Age of Extinction (2014) 3D H-SBS 1080p (Ing-Lat)
« Respuesta #1 : 21 mayo, 2017, 14:34:29 pm »
descargando la peli