Autor Tema: Guardians of the Galaxy Vol 2 [2017] FullHD 1080p [Ing-Lat]  (Leído 16 veces)

0 Usuarios y 1 Visitante están viendo este tema.

Desconectado fernandito



Titulo original: Guardians of the Galaxy Vol. 2
Ano: 2017
Duracion: 137 min.
Pais: Estados Unidos
Director: James Gunn
Reparto: Chris Pratt, Zoe Saldana, Dave Bautista, Bradley Cooper, Vin Diesel, Kurt Russell, Michael Rooker, Karen Gillan, Elizabeth Debicki, Tommy Flanagan, Sean Gunn, Pom Klementieff, Chris Sullivan, Sylvester Stallone, Stan Lee
Productora: Marvel Studios / Walt Disney Pictures
Genero: Ciencia ficcion. Aventuras. Accion. Comedia | Aventura espacial. Superheroes. Comic. Marvel Comics. Secuela. 3-D
Sinopsis: Continuan las aventuras del equipo en su travesia por los confines del cosmos. Los Guardianes deberan luchar para mantener unida a su nueva familia mientras intentan resolver el misterio de los verdaderos origenes de Peter Quill. Viejos rivales se convertiran en nuevos aliados, y queridos personajes de los comics clasicos acudiran en ayuda de nuestros heroes a medida que el universo cinematografico de Marvel continua expandiendose.
http://www.imdb.com/title/tt3896198
Trailer


Cita
General
Format : Matroska
Format version : Version 4 / Version 2
File size : 10.4 GiB
Duration : 2 h 15 min
Overall bit rate : 11.0 Mb/s
Movie name : Guardians of the Galaxy Vol. 2 (2017) 1080p
Encoded date : UTC 2017-08-08 23:24:14
Writing application : mkvmerge v9.9.0 (Pick Up) 64bit
Writing library : libebml v1.3.4 + libmatroska v1.4.5
Video
ID : 1
Format : AVC
Format/Info : Advanced Video Codec
Format profile : High@L4.1
Format settings, CABAC : Yes
Format settings, ReFrames : 5 frames
Codec ID : V_MPEG4/ISO/AVC
Duration : 2 h 15 min
Bit rate : 8 865 kb/s
Width : 1 920 pixels
Height : 808 pixels
Display aspect ratio : 2.40:1
Frame rate mode : Constant
Frame rate : 23.976 FPS
Color space : YUV
Chroma subsampling : 4:2:0
Bit depth : 8 bits
Scan type : Progressive
Bits/(Pixel*Frame) : 0.238
Stream size : 8.41 GiB (80%)
Title : Guardians of the Galaxy Vol. 2 (2017) 1080p
Writing library : x264 core 150 r2833 df79067
Language : English
Default : Yes
Forced : No
Audio #1
ID : 2
Format : AC-3
Format/Info : Audio Coding 3
Mode extension : CM (complete main)
Format settings, Endianness : Big
Codec ID : A_AC3
Duration : 2 h 15 min
Bit rate mode : Constant
Bit rate : 640 kb/s
Channel(s) : 6 channels
Channel positions : Front: L C R, Side: L R, LFE
Sampling rate : 48.0 kHz
Frame rate : 31.250 FPS (1536 spf)
Bit depth : 16 bits
Compression mode : Lossy
Stream size : 622 MiB (6%)
Title : AC3 5.1 Bluray
Language : Spanish
Default : Yes
Forced : No
Audio #2
ID : 3
Format : DTS
Format/Info : Digital Theater Systems
Mode : 16
Format settings, Endianness : Big
Codec ID : A_DTS
Duration : 2 h 15 min
Bit rate mode : Constant
Bit rate : 1 509 kb/s
Channel(s) : 6 channels
Channel positions : Front: L C R, Side: L R, LFE
Sampling rate : 48.0 kHz
Frame rate : 93.750 FPS (512 spf)
Bit depth : 24 bits
Compression mode : Lossy
Stream size : 1.43 GiB (14%)
Title : DTS
Language : English
Default : No
Forced : No
Text #1
ID : 4
Format : UTF-8
Codec ID : S_TEXT/UTF8
Codec ID/Info : UTF-8 Plain Text
Duration : 2 h 6 min
Bit rate : 1 b/s
Count of elements : 29
Stream size : 1 013 Bytes (0%)
Title : Subt_Forz
Language : Spanish
Default : Yes
Forced : No
Text #2
ID : 5
Format : UTF-8
Codec ID : S_TEXT/UTF8
Codec ID/Info : UTF-8 Plain Text
Duration : 2 h 14 min
Bit rate : 48 b/s
Count of elements : 1604
Stream size : 47.9 KiB (0%)
Title : Subt_Compl
Language : Spanish
Default : No
Forced : No







Uploadgig, File Upload, Rapidgator

**Todos los Enlaces Estan en Lupaste: