Autor Tema: The Croods [2013] 3D H-SBS 1080p [Ing-Lat]  (Leído 17 veces)

0 Usuarios y 1 Visitante están viendo este tema.

Desconectado fernandito

The Croods [2013] 3D H-SBS 1080p [Ing-Lat]
« : 10 agosto, 2017, 09:42:27 am »


TITULO ORIGINAL: The Croods
ANO: 2013
DURACION: 90 min.
PAIS: USA
DIRECTOR: Kirk De Micco, Chris Sanders
GUION: Kirk De Micco, Chris Sanders (Historia: John Cleese, Kirk De Micco, Chris Sanders)
REPARTO: Animation
PRODUCTORA: DreamWorks Animation
GENERO: Animacion. Aventuras. Comedia | Prehistoria. Familia. 3-D
Sinopsis: Prehistoria. Tras la destruccion de su hogar por un gran terremoto, Grug se ve obligado a emigrar con su familia. Mientras avanzan por un mundo desconocido y aterrador, se encuentran con un nomada de mente abierta que los deja a todos fascinados, sobre todo a la hija de Grug.
http://www.imdb.com/title/tt0481499/
Trailer


Cita
General
Format                                   : Matroska
Format version                           : Version 3 / Version 2
File size                                : 9.43 GiB
Duration                                 : 1h 38mn
Overall bit rate                         : 13.7 Mbps
Encoded date                             : UTC 2013-09-18 21:41:41
Writing application                      : mkvmerge v5.7.0 (The Whirlwind) built on Jul  8 2012 20:08:51
Writing library                          : libebml v1.2.3 + libmatroska v1.3.0
Video
ID                                       : 1
Format                                   : AVC
Format/Info                              : Advanced Video Codec
Format profile                           : High@L4.1
MultiView_Count                          : 2
MultiView_Layout                         : Side by Side (left eye first)
Format settings, CABAC                   : Yes
Format settings, ReFrames                : 4 frames
Codec ID                                 : V_MPEG4/ISO/AVC
Duration                                 : 1h 38mn
Bit rate                                 : 10.8 Mbps
Width                                    : 1 920 pixels
Height                                   : 1 080 pixels
Display aspect ratio                     : 16:9
Frame rate mode                          : Constant
Frame rate                               : 23.976 fps
Color space                              : YUV
Chroma subsampling                       : 4:2:0
Bit depth                                : 8 bits
Scan type                                : Progressive
Bits/(Pixel*Frame)                       : 0.218
Stream size                              : 7.45 GiB (79%)
Language                                 : English
Default                                  : Yes
Forced                                   : No
Audio #1
ID                                       : 2
Format                                   : AC-3
Format/Info                              : Audio Coding 3
Mode extension                           : CM (complete main)
Format settings, Endianness              : Big
Codec ID                                 : A_AC3
Duration                                 : 1h 38mn
Bit rate mode                            : Constant
Bit rate                                 : 448 Kbps
Channel(s)                               : 6 channels
Channel positions                        : Front: L C R, Side: L R, LFE
Sampling rate                            : 48.0 KHz
Bit depth                                : 16 bits
Compression mode                         : Lossy
Stream size                              : 316 MiB (3%)
Title                                    : AC3 5.1
Language                                 : Spanish
Default                                  : Yes
Forced                                   : No
Audio #2
ID                                       : 3
Format                                   : AC-3
Format/Info                              : Audio Coding 3
Mode extension                           : CM (complete main)
Format settings, Endianness              : Big
Codec ID                                 : A_AC3
Duration                                 : 1h 38mn
Bit rate mode                            : Constant
Bit rate                                 : 640 Kbps
Channel(s)                               : 6 channels
Channel positions                        : Front: L C R, Side: L R, LFE
Sampling rate                            : 48.0 KHz
Bit depth                                : 16 bits
Compression mode                         : Lossy
Stream size                              : 452 MiB (5%)
Title                                    : AC3 5.1
Language                                 : English
Default                                  : No
Forced                                   : No
Audio #3
ID                                       : 4
Format                                   : DTS
Format/Info                              : Digital Theater Systems
Mode                                     : 16
Format settings, Endianness              : Big
Codec ID                                 : A_DTS
Duration                                 : 1h 38mn
Bit rate mode                            : Constant
Bit rate                                 : 1 509 Kbps
Channel(s)                               : 6 channels
Channel positions                        : Front: L C R, Side: L R, LFE
Sampling rate                            : 48.0 KHz
Bit depth                                : 24 bits
Compression mode                         : Lossy
Stream size                              : 1.04 GiB (11%)
Title                                    : DTS 5.1
Language                                 : English
Default                                  : No
Forced                                   : No
Text
ID                                       : 5
Format                                   : VobSub
Muxing mode                              : zlib
Codec ID                                 : S_VOBSUB
Codec ID/Info                            : The same subtitle format used on DVDs
Title                                    : 3D
Language                                 : Spanish
Default                                  : No
Forced                                   : No







Uploadgig, File Upload, Rapidgator

**Todos los Enlaces Estan en Lupaste: